<?xml version="1.0" standalone="no"?>
<!DOCTYPE svg PUBLIC "-//W3C//DTD SVG 1.1//EN" "http://www.w3.org/Graphics/SVG/1.1/DTD/svg11.dtd">
<svg xmlns="http://www.w3.org/2000/svg">
<metadata>Generated by Fontastic.me</metadata>
<defs>
<font id="piconsthin" horiz-adv-x="512">
<font-face font-family="piconsthin" units-per-em="512" ascent="480" descent="-32"/>
<missing-glyph horiz-adv-x="512" />

<glyph unicode="&#97;" d="M329 200c-5 0-9-4-9-9l0-135-56 57c-4 3-10 3-13 0l-57-57 0 135c0 5-4 9-9 9-5 0-9-4-9-9l0-156c0-4 3-7 6-9 1 0 2 0 3 0 3 0 5 0 7 2l65 66 66-66c2-2 6-3 9-2 4 2 6 5 6 9l0 156c0 5-4 9-9 9z m49 186c-7 17-22 28-40 30-2 18-13 34-29 42-17 7-36 4-50-7-14 12-33 15-50 9-17-7-29-22-31-40-18-1-33-12-41-29-7-17-4-36 7-50-12-13-16-32-9-49 6-17 22-29 40-31 1-18 12-34 29-41 16-8 36-5 50 6 9-8 20-12 32-12 6 0 12 1 17 3 17 7 29 22 31 40 18 2 34 13 41 29 8 17 5 36-6 50 12 14 15 33 9 50z m-28-56c11-10 14-24 9-37-6-12-19-19-33-18-2 1-5 0-7-2-2-2-3-5-3-7 1-14-6-27-19-32-13-5-28-1-36 10-2 2-4 4-7 4 0 0 0 0 0 0-3 0-5-2-7-3-9-11-24-14-36-9-12 6-20 19-18 33 0 2-1 5-3 7-1 2-4 3-7 2-14-1-27 7-31 20-5 13-1 27 10 36 2 2 3 4 3 7 0 2-1 5-3 7-10 9-14 23-8 36 5 12 18 20 32 18 3 0 5 1 7 2 2 2 3 5 3 8-1 14 7 26 20 31 12 5 27 1 36-10 1-2 4-3 6-3 3 0 6 1 7 3 9 10 24 14 37 8 12-5 19-18 18-32-1-3 0-6 2-7 2-2 5-3 7-3 14 1 27-7 32-20 5-13 1-27-10-36-2-1-4-4-4-6 0-3 1-6 3-7z m-74 53c-7 2-13 4-20 4-19 0-36-12-44-29-10-24 1-53 25-63 6-3 13-4 19-4 19 0 36 11 44 28 11 24 0 53-24 64z m8-57c-5-10-16-17-28-17-4 0-8 0-12 2-15 7-22 25-15 40 5 11 15 18 27 18 4 0 9-1 12-3 16-7 22-24 16-40z"/>
<glyph unicode="&#98;" d="M383 411c0 0 0 0 0 0-10-10-10-25 0-35 5-4 11-7 17-7 6 0 13 3 18 7 9 10 9 26 0 35-10 10-26 10-35 0z m22-22c-3-2-7-2-9 0-3 3-3 7 0 9 0 0 0 0 0 1 2 2 6 2 9-1 2-2 2-6 0-9z m47 56c-14 14-32 21-52 21 0 0 0 0 0 0-19 0-38-7-51-21-1-1-1-1-2-2l-64-102c-4-6-10-11-14-13l-13 14c-23 23-46 14-55 6-3-2-140-104-156-115-6-2-11-7-12-13-3-6-1-14 4-19l18-18c5-5 12-7 19-5-2-6 0-13 5-19l15-15c6-5 14-7 22-3l0 0 0-1c-4-7-2-16 4-21l7-8c6-5 13-7 20-5-2-6-1-14 5-19l7-7c7-7 18-8 25-2l3 3-4-8c-3-7-2-16 4-22l19-19c4-4 9-6 14-6 2 0 3 1 5 1 6 2 11 7 13 13l115 156c10 10 15 33-6 54l-12 13c1 3 6 9 11 13l104 65c1 1 1 1 2 1 28 29 28 75 0 103z m-149-287l-140 140c10 7 20 14 32 23l131-132z m-81-109c0-1-1-2-1-4 0 0-1 0-1-1 0 0-1 0-1 1l-19 19c-1 0-1 1 0 1l22 45c1 4 0 9-3 11-3 3-8 3-11 0l-35-29c-1 0-1 0-2 0l-7 7c0 1 0 1 0 2l18 30c2 3 1 8-2 11-3 3-8 3-11 0l-28-18c0-1-1-1-1 0l-8 7c0 1 0 1 0 2l12 24c2 3 1 7-2 10-2 3-7 3-10 2l-24-12c-1 0-1 0-1 0l-15 15c-1 1-1 1-1 2l20 24c3 4 3 8 0 12-3 3-7 4-11 2l-31-16c0-1-1-1-1 0l-18 18c0 0 0 0 0 1 0 0 0 0 1 1 1 0 2 0 3 1 0 0 0 0 94 70l144-144z m217 307l-103-65c-7-6-22-19-19-34 1-2 1-3 3-5l14-14c17-17 6-30 6-31-1 0-1 0-1 0 0 0 0 0 0 0l-2-3-128 128c1 0 2 1 2 1l0 0c1 1 1 1 1 1 1 1 14 12 31-5l16-16c1-1 3-2 4-2 16-4 30 14 35 20l64 102c10 10 24 15 38 15 15 0 28-5 39-16 21-21 21-55 0-76z"/>
<glyph unicode="&#99;" d="M470 464c-3 3-8 4-12 1l-255-215c0 0 0 0 0 0 0 0 0 0 0-1l-47-47c-14-2-65-12-80-68-15-55-40-80-40-81-2-2-3-5-2-8 1-3 3-6 6-7 2 0 18-4 41-4 23 0 53 4 79 22 27 20 44 51 48 94l47 47c1 0 1 0 1 0 0 0 0 0 0 0l215 255c3 3 2 9-1 12z m-321-393c-30-21-69-20-90-18 10 14 24 39 34 77 13 44 51 53 64 54l33-33c-4-37-18-64-41-80z m51 96l-27 27 36 36 27-27z m49 49l-27 27 167 140z"/>
<glyph unicode="&#100;" d="M255 467c-74 0-134-59-134-132 0-37 16-78 43-110 0 0 0 0 0-1 1 0 29-36 34-65-3-2-4-4-4-7l0-96c0-5 4-9 9-9l17 0 15-17c1-2 4-3 6-3l27 0c3 0 5 1 7 3l14 17 18 0c5 0 9 4 9 9l0 96c0 3-2 5-4 7 4 29 33 65 33 65 1 1 1 2 2 2 25 32 41 72 41 109 0 73-60 132-133 132z m43-402l-13 0c-2 0-5-1-7-3l-14-17-19 0-14 17c-2 2-4 3-7 3l-12 0 0 78 86 0 0-78z m33 171c-1-1-1-2-1-3-7-8-32-42-36-73l-30 0 0 99c2-1 5-1 7-1 11 0 24 6 33 15 16 17 19 40 7 52-5 4-11 7-18 7-11 0-23-6-33-16-2-2-4-5-5-7-2 2-4 5-6 7-9 10-22 16-33 16-7 0-13-3-18-7-12-12-9-35 7-52 10-9 22-15 33-15 3 0 5 0 8 1l0-99-30 0c-5 32-31 67-37 74 0 1 0 1-1 2-24 28-39 66-39 99 0 63 52 114 116 114 63 0 115-51 115-114 0-33-15-71-39-99z m-67 51c1 5 4 11 9 16 6 7 14 11 20 11 2 0 4-1 6-2 4-4 2-16-8-26-6-6-13-10-20-10-2 0-4 0-5 1-3 3-2 8-2 10z m-20-10c-2-1-4-1-6-1-6 0-14 4-20 10-9 10-12 22-7 26 1 1 3 2 5 2 6 0 14-4 20-11 5-5 8-11 9-16 1-2 1-7-1-10z"/>
<glyph unicode="&#101;" d="M468 402l-428 0c-4 0-8-4-8-9l0-267c0-5 4-9 8-9l38 0c5 0 9 4 9 9 0 5-4 9-9 9l-29 0 0 249 410 0 0-249-28 0c-5 0-9-4-9-9 0-5 4-9 9-9l37 0c5 0 9 4 9 9l0 267c0 5-4 9-9 9z m-63-214l0 1c-2 9-11 15-21 15l-259 0c-11 0-20-6-22-15l-6-59c-1-6 1-12 5-16 4-4 10-6 16-6l272 0c13 0 22 8 22 19 0 1 0 3-1 5z m-15-62l-272 0c-2 0-3 0-4 0 0 0 0 0 0 0l7 59c0 1 2 1 4 1l259 0c2 0 3 0 4-1l6-56 0-2c0 0-1-1-4-1z m-125 42c0-6-5-11-11-11-6 0-10 5-10 11 0 5 4 10 10 10 6 0 11-5 11-10z m-102-22c0-6-4-11-10-11-6 0-11 5-11 11 0 5 5 10 11 10 6 0 10-5 10-10z m203 0c0-6-5-11-10-11-6 0-11 5-11 11 0 5 5 10 11 10 5 0 10-5 10-10z m-219 89l215 0c25 0 45 20 45 45 0 12-5 22-12 30 0 1-1 1-1 2-1 0-1 1-2 1-8 8-18 12-30 12l-215 0c-12 0-23-4-31-12 0 0-1-1-1-1-1-1-1-1-2-2-7-8-12-18-12-30 0-25 21-45 46-45z m-20 64c0 0 0 0 0 0 1 0 1 0 1 1 5 4 11 7 19 7 15 0 27-12 27-27 0-15-12-27-27-27-15 0-28 12-28 27 0 7 3 14 8 19z m254 1c0-1 0-1 0-1 0 0 0 0 0 0 5-5 8-12 8-19 0-15-12-27-27-27-15 0-27 12-27 27 0 15 12 27 27 27 7 0 14-3 19-7z m-55-47l-144 0c6 7 10 17 10 27 0 10-4 20-10 27l144 0c-6-7-9-17-9-27 0-10 3-20 9-27z"/>
<glyph unicode="&#102;" d="M443 317c-17 0-31-14-31-30 0-6 2-11 5-16l-87-94c-4 2-8 3-13 3-3 0-5 0-8-1l-94 145c4 6 7 12 7 20 0 16-13 30-30 30-17 0-30-14-30-30 0-3 0-6 1-8l-77-49c-5 4-12 7-20 7-16 0-30-14-30-30 0-17 14-31 30-31 0 0 0 0 1 0 16 0 30 14 30 31 0 3-1 5-1 8l76 49c6-5 12-8 20-8 0 0 0 0 0 0 3 0 5 1 8 2l94-146c-4-5-7-12-7-19 0-17 14-30 30-30 17 0 31 13 31 30 0 5-2 10-5 15l87 94c4-2 8-3 13-3 0 0 0 0 0 0 16 0 30 14 30 31 0 16-14 30-30 30z m-377-66c-6 0-12 6-12 13 0 3 1 6 4 8 2 3 5 4 8 4 5 0 9-2 11-6 0 0 0 0 0 0 0 0 0 0 0 0 1-2 2-4 2-6 0-7-6-13-13-13z m126 80c-7 0-12 6-12 13 0 3 1 6 3 8 2 3 6 4 9 4 7 0 12-6 12-12 0-5-2-9-5-11 0 0 0 0 0 0 0 0 0 0 0 0-2-1-5-2-7-2z m125-194c-7 0-12 6-12 13 0 3 1 6 4 9 2 2 5 3 8 3 3 0 6-1 8-3 1 0 1 0 1 0 0 0 0 0 0 0 2-3 4-6 4-9 0-7-6-13-13-13z m126 137c-7 0-13 6-13 13 0 3 2 6 4 8 2 3 5 4 9 4 6 0 12-6 12-12 0-7-6-13-12-13z"/>
<glyph unicode="&#103;" d="M253 347c-5 0-9-4-9-9l0-105-54-39c-4-3-4-8-2-12 2-3 5-4 8-4 1 0 3 1 5 2l57 42c2 1 4 4 4 7l0 109c0 5-4 9-9 9z m166-118c0 92-74 166-166 166-92 0-167-74-167-166 0-53 25-100 63-130l-34-58c-2-4-1-10 4-12 1-1 2-1 4-1 3 0 6 1 8 4l33 57c25-17 56-27 89-27 33 0 63 10 89 27l33-57c2-3 5-4 8-4 1 0 3 0 4 1 4 2 6 8 3 12l-34 58c39 30 63 77 63 130z m-166-149c-82 0-149 67-149 149 0 82 67 149 149 149 82 0 149-67 149-149 0-82-67-149-149-149z m-155 282c1 0 3 0 4 1l105 61c2 1 4 3 4 5 1 2 0 5-1 7-12 21-35 34-60 34-12 0-24-3-34-9-33-19-45-62-26-95 2-2 5-4 8-4z m26 84c8 4 17 7 26 7 16 0 30-7 40-19l-88-51c-9 23 0 50 22 63z m175-22l105-61c1-1 3-1 4-1 3 0 6 2 8 4 9 16 11 35 7 53-5 18-17 33-33 42-10 6-22 9-34 9-25 0-48-13-60-34-1-2-2-5-1-7 0-2 2-4 4-5z m57 29c9 0 18-3 26-7 12-7 20-18 24-32 2-10 2-21-2-31l-88 51c10 12 24 19 40 19z"/>
<glyph unicode="&#104;" d="M331 107c-1 5-5 8-10 8-5-1-8-6-8-11l9-51-134 0 8 51c1 5-2 10-7 11-5 0-10-3-10-8l-9-54c0-1 0-1 0-1 0-9 8-17 18-17l134 0c10 0 18 8 18 17 0 0 0 0 0 1z m107 369l-367 0c-21 0-39-18-39-40l0-255c0-22 18-39 39-39l367 0c22 0 40 17 40 39l0 255c0 22-18 40-40 40z m-367-18l367 0c12 0 22-10 22-22l0-222-410 0 0 222c0 12 10 22 21 22z m367-299l-367 0c-11 0-21 10-21 22l0 15 410 0 0-15c0-12-10-22-22-22z m-184 153c0 0 0 0 0 0 13 0 24 11 24 24 0 14-11 24-24 24-14 0-24-10-24-24 0-13 10-24 24-24z m0 30c3 0 6-2 6-6 0-3-3-6-6-6-4 0-7 3-7 6 0 4 3 6 7 6z m-84-15l10 0c1-7 3-14 6-20l-9-5c-5-3-6-8-4-12 2-3 5-5 8-5 2 0 3 0 5 1l9 6c4-6 9-11 14-15l-5-9c-2-4-1-10 3-12 2-1 3-2 5-2 3 0 6 2 8 5l5 9c6-2 13-4 20-5l0-11c0-5 4-9 9-9 5 0 9 4 9 9l0 11c7 1 13 3 19 5l6-9c1-3 4-5 8-5 1 0 3 1 4 2 4 2 6 8 3 12l-5 9c5 4 10 9 14 15l10-6c1-1 3-1 4-1 3 0 6 2 8 5 2 4 1 9-3 12l-9 5c2 6 4 13 5 20l10 0c5 0 9 4 9 9 0 5-4 9-9 9l-10 0c-1 7-3 14-5 20l9 5c4 2 5 8 3 12-2 5-8 6-12 4l-9-6c-4 6-9 11-15 15l5 9c3 4 1 10-3 12-4 3-10 1-12-3l-5-9c-7 3-13 5-20 5l0 11c0 5-4 9-9 9-5 0-9-4-9-9l0-11c-7 0-14-2-20-5l-5 9c-3 4-8 6-13 3-4-2-5-8-3-12l5-9c-5-4-10-9-14-15l-9 6c-5 2-10 1-13-4-2-4-1-10 4-12l9-5c-3-6-5-13-6-20l-10 0c-5 0-9-4-9-9 0-5 4-9 9-9z m84 65c31 0 56-25 56-56 0-31-26-56-56-56-31 0-56 25-56 56 0 31 25 56 56 56z"/>
<glyph unicode="&#105;" d="M194 472l-92 0c-6 0-11-3-16-7-4-4-6-9-6-15l0-289c0-3 1-5 2-8l46-108c3-8 11-14 20-14l0 6 0 0 0-6c5 0 11 3 15 7 2 2 4 4 5 7l46 108c1 3 1 6 1 8l0 289c0 6-2 11-6 15-4 4-9 7-15 7z m-95-19c1 1 2 1 3 1l92 0c1 0 2 0 3-1 0-1 1-2 1-3l0-280-25 0c0 1 0 1 0 1l0 254c0 5-4 9-9 9-5 0-9-4-9-9l0-254c0 0 1 0 1-1l-58 0 0 280c0 1 0 2 1 3z m63-377l-28 0-33 76 93 0z m252 396l-124 0c-6 0-11-3-15-7-4-4-7-9-7-15l0-41c0 0 0 0 0 0l0-362c0-6 3-11 7-15 4-4 9-7 15-7l124 0c12 0 22 10 22 22l0 403c0 12-10 22-22 22z m4-425c0-2-2-4-4-4l-124 0c-1 0-2 0-3 1-1 1-1 2-1 3l0 40 78 0c5 0 9 4 9 9 0 5-4 9-9 9l-78 0 0 33 37 0c5 0 8 4 8 9 0 5-3 9-8 9l-37 0 0 34 78 0c5 0 9 4 9 9 0 5-4 9-9 9l-78 0 0 33 37 0c5 0 8 4 8 9 0 5-3 9-8 9l-37 0 0 34 78 0c5 0 9 4 9 9 0 5-4 9-9 9l-78 0 0 34 37 0c5 0 8 3 8 8 0 5-3 9-8 9l-37 0 0 34 78 0c5 0 9 4 9 9 0 5-4 9-9 9l-78 0 0 36c0 1 1 2 1 3 1 0 2 1 3 1l124 0c2 0 4-2 4-4z"/>
<glyph unicode="&#106;" d="M257 475c-123 0-222-100-222-222 0-123 99-222 222-222 122 0 222 99 222 222 0 122-100 222-222 222z m0-426c-113 0-205 91-205 204 0 112 92 204 205 204 112 0 204-92 204-204 0-113-92-204-204-204z m172 281c-5 0-9-5-8-10 0-8-9-17-26-26-25-14-21-24-11-52 7-21-33-88-51-101-2 4-4 17-4 28l0 24c0 0 0 3-4 30 0 0 0 0-1 0l-6 24c0 1-1 2-2 3l-19 22c-1 1-2 2-3 3-2 0-40 16-58 20-1 0-3 0-4 5-1 7 4 18 12 22 4 2 7 2 11 1 3 0 8-1 12 3 5 5 5 12 4 28-1 12-5 21-12 26-11 9-25 7-36 6-3 0-5-1-8-1-20 0-24-15-31-49l-1-7c-1-1-1-1-1-2-1 1-2 2-2 3-2 4-4 23-4 39-1 4-4 7-7 8-4 1-8-1-10-4l-15-27c-1 0-1 0-1-1 0 0-3-7-22-14-3-1-4-1-5-1-2 4 2 25 10 42 2 5 0 10-5 12-4 2-9 0-11-5-7-14-19-48-7-62 4-4 11-8 24-3 24 9 31 19 33 24l0 1c1-9 3-15 4-17 2-3 10-17 22-15 7 1 12 7 14 18l2 7c7 33 8 35 13 35 3 0 7 1 10 1 8 1 18 2 22-2 3-2 5-7 6-14 0-5 0-8 1-11-5 1-11 1-18-3-16-8-23-26-21-40 1-11 7-19 17-21 14-3 45-15 53-18l17-19 5-21c2-11 3-25 4-26l0-24c0-12 2-38 15-45 1-1 4-2 7-2 2 0 6 1 9 3 18 12 71 89 59 123-8 24-8 24 3 30 24 13 36 27 35 43-1 5-5 9-10 9z m-277-103c-7 2-16 6-18 8-7 7-12 10-17 13-3 2-7 4-12 8-4 3-8 4-13 2-3-2-14-6-18-58-1-5 3-10 8-10 5-1 9 3 10 8 1 16 4 33 7 40 3-2 6-4 9-5 4-3 8-5 13-11 5-5 15-8 24-12 5-2 11-4 15-6l-1-1c-12-11-16-15-23-29-7-14-17-44-18-45-1-5 1-10 6-11 1-1 2-1 3-1 4 0 7 2 8 6 0 0 11 30 17 43 6 11 7 13 19 24l3 2c6 5 6 11 6 15-2 10-14 14-28 20z"/>
<glyph unicode="&#107;" d="M219 240c-3 6-8 9-14 9l-1 0c-7 0-11-3-14-9l-48-108c-1-2-2-3-2-5 0-6 5-11 11-11 5 0 9 3 10 7l11 26 64 0 10-25c2-5 6-8 11-8 6 0 11 5 11 11 0 2 0 3-1 5z m-38-71l23 52 23-52z m117 42c-4-1-6-5-6-9 0-5 4-9 9-9 1 0 2 0 4 0 6 3 13 4 21 4 16 0 25-7 25-21l0-3c-8 3-16 4-27 4-24 0-40-10-40-31l0-1c0-19 16-30 34-30 15 0 26 6 32 14l0-3c0-5 5-10 11-10 7 0 11 5 11 11l0 48c0 13-3 24-10 31-7 7-18 11-33 11-13 0-22-3-31-6z m53-59c0-12-11-21-26-21-11 0-19 6-19 15l0 1c0 10 8 16 23 16 9 0 16-2 22-4l0-7z m79 253l-63 62c-4 4-10 7-16 7l-248 0c-13 0-24-11-24-24l0-400c0-13 11-24 24-24l310 0c13 0 24 11 24 24l0 338c0 6-2 13-7 17z m-17-8l-53 0 0 52z m6-347c0-3-3-6-6-6l-310 0c-3 0-6 3-6 6l0 400c0 3 3 6 6 6l239 0 0-68c0-5 4-9 9-9l68 0z"/>
<glyph unicode="&#108;" d="M434 338l-155 0c27 12 82 41 86 73 1 8-1 21-18 32-9 7-18 10-27 10-42 0-59-70-65-100-8 38-32 118-77 118-10 0-20-4-30-12-16-13-23-28-21-43 5-34 55-62 89-78l-140 0c-5 0-9-4-9-9l0-87c0-5 4-9 9-9l11 0 0-197c0-5 4-9 9-9l318 0c5 0 9 4 9 9l0 197 11 0c5 0 9 4 9 9l0 87c0 5-4 9-9 9z m-9-80c0 1-1 1-2 1l-129 0 0 61 131 0z m-105 177c5 0 11-2 17-6 11-8 10-14 10-16-2-19-41-43-73-58 6 31 22 80 46 80z m-175-16c-2 9 3 17 14 25 7 6 13 9 19 9 28 0 50-59 60-105-39 16-89 46-93 71z m72-99l0-61-131 0c0 0-1 0-1 0l0 61 132 0z m-112-79l112 0 0-196-112 0z m130-196l0 275 41 0 0-275z m59 0l0 196 111 0 0-196-111 0z"/>
<glyph unicode="&#109;" d="M410 78l-86 234 0 73c16 4 28 18 28 35l0 12c0 20-17 36-37 36l-122 0c-20 0-37-16-37-36l0-12c0-17 12-31 28-35l0-73-86-234c-5-11-3-24 4-34 6-11 18-17 30-17l244 0c12 0 24 6 31 17 6 10 8 23 3 34z m-209 229c1 1 1 2 1 3l0 83c0 5-4 9-9 9-10 0-19 8-19 18l0 12c0 10 9 18 19 18l122 0c11 0 19-8 19-18l0-12c0-10-8-18-19-18-5 0-9-4-9-9l0-83c0-1 0-2 1-3l29-79c-13-9-94-13-168-12z m191-253c-4-6-10-9-16-9l-244 0c-6 0-12 3-16 9-3 5-4 11-1 17l46 127c9 0 19 0 31 0 50 0 124 2 150 13l51-140c3-6 2-12-1-17z m-188 129c-17 0-31-13-31-31 0-17 14-31 31-31 17 0 31 14 31 31 0 18-14 31-31 31z m0-44c-7 0-13 6-13 13 0 8 6 14 13 14 7 0 13-6 13-14 0-7-6-13-13-13z m89 11c-24 0-43-19-43-43 0-24 19-43 43-43 24 0 43 19 43 43 0 24-19 43-43 43z m0-68c-14 0-25 11-25 25 0 14 11 25 25 25 14 0 25-11 25-25 0-14-11-25-25-25z m-48 164c15 0 28 13 28 28 0 16-13 28-28 28-16 0-29-12-29-28 0-15 13-28 29-28z m0 38c5 0 10-4 10-10 0-5-5-10-10-10-6 0-11 5-11 10 0 6 5 10 11 10z"/>
<glyph unicode="&#110;" d="M255 467c-121 0-219-99-219-219 0-121 98-219 219-219 120 0 219 98 219 219 0 120-99 219-219 219z m0-420c-111 0-201 90-201 201 0 110 90 201 201 201 111 0 201-91 201-201 0-111-90-201-201-201z m158 197c1 2 1 5 0 7 0 1-1 2-2 3l-53 54c-4 3-9 3-13 0-3-4-3-10 0-13l38-38-118 0 0 118 37-37c3-4 9-4 13 0 3 4 3 9 0 13l-53 52c0 0 0 0 0 0l-1 1c-3 4-9 4-13 0l-53-53c-4-4-4-9 0-13 2-2 4-3 6-3 3 0 5 1 7 3l39 40 0-121-121 0 38 38c4 3 4 9 0 13-3 3-9 3-12 0l-54-54c-3-3-3-9 0-13l54-53c1-2 4-3 6-3 2 0 5 1 6 3 4 3 4 9 0 13l-38 38 121 0 0-121-39 39c-4 4-10 4-13 0-4-3-4-9 0-12l53-54c2-2 4-2 7-2 2 0 4 0 6 2l1 2c0 0 0 0 0 0l53 52c3 3 3 9 0 12-4 4-10 4-13 0l-37-36 0 118 118 0-38-38c-3-4-3-10 0-13 2-2 4-3 6-3 3 0 5 1 7 3l53 53c1 1 2 2 2 3z"/>
<glyph unicode="&#111;" d="M471 465c-4 3-10 4-14 2l-418-214c-5-3-8-8-7-13 0-6 4-10 9-12l165-51 0-118c0-6 4-11 10-13 1 0 2 0 3 0 5 0 9 2 11 6l66 97 86-27c1-1 2-1 3-1 3 0 5 1 7 2 3 2 5 5 6 8l78 321c1 5-1 10-5 13z m-247-391l0 97 54-17z m158 67l-152 47 155 169c4 4 3 9 0 13-4 3-10 3-13-1l-160-175-155 48 399 204z"/>
<glyph unicode="&#112;" d="M189 85l135 0c5 0 9 4 9 9 0 5-4 9-9 9l-135 0c-5 0-9-4-9-9 0-5 4-9 9-9z m0 42l135 0c5 0 9 4 9 9 0 5-4 9-9 9l-135 0c-5 0-9-4-9-9 0-5 4-9 9-9z m243 282l-63 0c0 1 0 1-1 1l-39 39c-4 4-8 6-13 6l-157 0c-10 0-18-9-18-19l0-27-61 0c-25 0-46-20-46-46l0-130c0-26 21-46 46-46l352 0c25 0 46 20 46 46l0 130c0 26-21 46-46 46z m-116 28l40-40 0-62-197 0 0 102z m144-204c0-16-13-29-28-29l-352 0c-15 0-28 13-28 29l0 130c0 16 13 28 28 28l61 0 0-65c0-5 4-9 9-9l215 0c5 0 9 4 9 9l0 65 58 0c15 0 28-12 28-28z m-95-65c-5 0-9-4-9-9l-1-112-196 0 0 112c0 5-4 9-9 9-5 0-9-4-9-9l0-112c0-10 8-18 18-18l196 0c11 0 19 8 19 18l0 112c0 5-4 9-9 9z"/>
<glyph unicode="&#113;" d="M174 199l-35-16c6 33 28 64 38 77 3 4 2 9-2 12-4 3-9 3-12-1-16-20-43-60-43-103 0-3 1-6 4-7 1-1 3-2 5-2 1 0 2 0 3 1l50 22c4 2 6 8 4 12-2 5-7 7-12 5z m173 73c-4 4-9 5-13 2-4-4-5-9-1-13 10-13 32-44 38-78l-35 16c-5 2-10 0-12-5-2-4 0-10 5-12l49-22c1-1 2-1 4-1 1 0 3 1 5 2 2 1 4 4 4 7-1 44-28 84-44 104z m-21 96c0 18-7 43-19 63-14 26-33 40-52 40-19 0-38-14-52-40-12-20-19-45-19-64l19-179c1-8 8-15 16-15l72 0c8 0 15 7 15 14l20 180z m-37-177l-68 0-19 177c0 15 7 37 16 54 11 20 25 31 37 31 12 0 26-11 37-31 9-17 16-39 16-54z m-34 188c-19 0-34-15-34-34 0-18 15-34 34-34l0 0c18 0 34 16 34 34 0 19-16 34-34 34z m0-50c-9 0-16 7-16 16 0 4 2 8 5 11 3 3 7 5 11 5 9 0 16-7 16-16 0-9-7-16-16-16z m22-172c-2 1-5 1-7 0-3-1-5-3-5-5-5-13-8-19-10-21-2 2-5 8-10 21 0 2-2 4-5 5-2 1-5 1-7 0-8-4-18-12-18-29 0-1 9-101 40-101 0 0 0 0 0 0 31 0 40 100 40 101 0 17-10 25-18 29z m-22-112c-9 9-22 63-22 83 0 1 0 3 1 4 6-13 13-19 21-19 8 0 15 6 21 19 0-1 1-3 1-4 0-20-13-74-22-83z"/>
<glyph unicode="&#114;" d="M257 467c-121 0-219-98-219-219 0-120 98-218 219-218 120 0 219 98 219 218 0 121-99 219-219 219z m86-282c13 18 21 39 21 63 0 24-8 46-21 64l66 66c30-35 49-80 49-130 0-49-19-95-49-130z m-175 63c0 49 40 89 89 89 49 0 89-40 89-89 0-49-40-89-89-89-49 0-89 40-89 89z m229 144l-66-67c-19 19-45 30-74 30-24 0-46-8-64-21l-66 67c35 30 80 48 130 48 54 0 104-22 140-57z m-341-144c0 55 22 104 58 140l66-66c-18-19-30-45-30-74 0-28 12-54 30-74l-66-66c-36 36-58 86-58 140z m71-152l66 67c18-14 40-22 64-22 29 0 55 12 74 30l66-66c-36-36-86-57-140-57-50 0-95 18-130 48z"/>
<glyph unicode="&#115;" d="M382 288c-12-12-12-31 0-43 6-6 13-9 21-9 9 0 16 3 22 9 6 6 9 13 9 21 0 9-3 16-9 22-12 12-32 12-43 0z m30-30c-4-5-13-5-17 0-5 5-5 12 0 17 2 3 5 4 8 4 4 0 7-1 9-4 3-2 4-5 4-8 0-4-1-7-4-9z m-96 45l-208 0c-18 0-33-15-33-33l0-169c0-18 15-33 33-33l208 0c18 0 33 15 33 33l0 169c0 18-15 33-33 33z m15-202c0-8-6-15-15-15l-208 0c-8 0-15 7-15 15l0 169c0 8 7 15 15 15l208 0c9 0 15-7 15-15z m103 245l-164 0 65 83c1 0 2-1 3-1 10 0 19 9 19 19 0 10-9 19-19 19-10 0-19-9-19-19 0-3 1-5 2-7l-69-89-69 89c1 2 2 4 2 7 0 10-8 19-19 19-10 0-18-9-18-19 0-10 8-19 18-19 1 0 2 1 3 1l65-83-158 0c-24 0-42-19-42-42l0-236c0-23 18-42 42-42l358 0c23 0 42 19 42 42l0 236c0 23-19 42-42 42z m24-278c0-13-11-24-24-24l-358 0c-14 0-24 11-24 24l0 236c0 13 10 24 24 24l358 0c13 0 24-11 24-24z"/>
<glyph unicode="&#116;" d="M465 443l-424 0c-5 0-9-4-9-9l0-372c0-5 4-9 9-9l424 0c5 0 9 4 9 9l0 372c0 5-4 9-9 9z m-9-23l0-25-406 0 0 25z m-406-349l0 306 406 0 0-306z m364 263l-322 0c-5 0-9-4-9-9l0-35c0-4 4-8 9-8l322 0c5 0 9 4 9 8l0 35c0 5-4 9-9 9z m-9-35l-304 0 0 17 304 0 0-17z m-175-45l-139 0c-4 0-8-4-8-9l0-127c0-5 4-9 8-9l139 0c5 0 9 4 9 9l0 127c0 5-4 9-9 9z m-9-127l-121 0 0 109 121 0z m193 127l-139 0c-5 0-9-4-9-9l0-127c0-5 4-9 9-9l139 0c5 0 9 4 9 9l0 127c0 5-4 9-9 9z m-9-127l-121 0 0 109 121 0 0-109z"/>
</font>
</defs>
</svg>
